osu file format v14

[General]
AudioFilename: URF-SZvO5Yg.mp3
AudioLeadIn: 1500
PreviewTime: 46676
Countdown: 0
SampleSet: Normal
StackLeniency: 0.7
Mode: 1
LetterboxInBreaks: 0
WidescreenStoryboard: 0

[Editor]
DistanceSpacing: 0.5
BeatDivisor: 2
GridSize: 32
TimelineZoom: 0.6799989

[Metadata]
Title:Star map
TitleUnicode:Star map
Artist:Shimotsuki Haruka
ArtistUnicode:霜月はるか
Creator:BlackHairEND
Version:Kantan
Source:見上げてごらん、夜空の星を
Tags:PULLTOP eroge visual novel opening miagete goran yozora no hoshi o JUDYDANNY
BeatmapID:768829
BeatmapSetID:347598

[Difficulty]
HPDrainRate:8
CircleSize:5
OverallDifficulty:3
ApproachRate:4
SliderMultiplier:1.2
SliderTickRate:1

[Events]
//Background and Video events
0,0,"yozora_wallpaper.jpg",0,50
//Break Periods
//Storyboard Layer 0 (Background)
//Storyboard Layer 1 (Fail)
//Storyboard Layer 2 (Pass)
//Storyboard Layer 3 (Foreground)
//Storyboard Sound Samples

[TimingPoints]
571,315.789473684211,4,1,0,80,1,0
15571,-100,4,1,0,50,0,0
25676,-100,4,1,0,80,0,0
47307,-100,4,1,0,90,0,1
87728,-100,4,1,0,80,0,0

[HitObjects]
64,160,571,5,2,0:0:0:0:
160,128,3097,5,2,0:0:0:0:
256,192,5623,5,2,0:0:0:0:
256,96,6886,1,0,0:0:0:0:
256,192,8149,1,2,0:0:0:0:
96,192,9413,1,0,0:0:0:0:
288,256,10044,1,2,0:0:0:0:
256,192,10676,1,2,0:0:0:0:
256,192,11939,1,2,0:0:0:0:
256,192,13202,12,0,15097,0:0:0:0:
288,224,15728,5,2,0:0:0:0:
288,224,16992,1,0,0:0:0:0:
64,192,18255,1,0,0:0:0:0:
96,192,19518,1,2,0:0:0:0:
320,256,20149,1,0,0:0:0:0:
288,224,20781,1,2,0:0:0:0:
416,256,22044,1,0,0:0:0:0:
64,192,23307,1,2,0:0:0:0:
32,160,23939,1,0,0:0:0:0:
416,288,25834,1,2,0:0:0:0:
256,256,27097,1,0,0:0:0:0:
224,64,27728,1,0,0:0:0:0:
448,288,28360,1,2,0:0:0:0:
384,256,29623,1,0,0:0:0:0:
32,160,30886,1,6,0:0:0:0:
96,192,31518,1,0,0:0:0:0:
128,224,32149,1,0,0:0:0:0:
416,256,33413,1,2,0:0:0:0:
256,224,34518,1,6,0:0:0:0:
192,192,35149,1,6,0:0:0:0:
384,256,35939,1,4,0:0:0:0:
64,192,37202,1,2,0:0:0:0:
128,160,38465,1,2,0:0:0:0:
128,160,39097,1,2,0:0:0:0:
64,160,40360,1,0,0:0:0:0:
96,160,40992,1,4,0:0:0:0:
192,192,42097,1,2,0:0:0:0:
32,352,43202,1,0,0:0:0:0:
320,224,43518,1,0,0:0:0:0:
96,192,44623,1,6,0:0:0:0:
224,192,45255,1,6,0:0:0:0:
224,192,46676,1,0,0:0:0:0:
256,192,47307,12,0,49202,0:0:0:0:
192,160,49834,5,0,0:0:0:0:
288,256,50465,1,2,0:0:0:0:
256,224,51097,1,0,0:0:0:0:
32,192,51413,1,0,0:0:0:0:
192,128,51728,1,2,0:0:0:0:
256,192,52360,12,0,54255,0:0:0:0:
96,160,54886,5,2,0:0:0:0:
448,352,55992,1,6,0:0:0:0:
192,128,56623,1,6,0:0:0:0:
128,160,57413,1,4,0:0:0:0:
320,128,58676,1,0,0:0:0:0:
288,96,59307,1,2,0:0:0:0:
416,288,59939,1,0,0:0:0:0:
352,256,61202,1,2,0:0:0:0:
128,96,61834,1,0,0:0:0:0:
256,192,62465,1,6,0:0:0:0:
128,160,63728,1,0,0:0:0:0:
384,288,64360,1,2,0:0:0:0:
352,256,64992,1,4,0:0:0:0:
128,160,65623,1,6,0:0:0:0:
352,256,66255,1,4,0:0:0:0:
256,192,67518,12,0,69413,0:0:0:0:
192,160,70044,5,2,0:0:0:0:
288,256,70676,1,0,0:0:0:0:
256,224,71307,1,2,0:0:0:0:
224,160,71623,1,2,0:0:0:0:
128,160,71939,1,0,0:0:0:0:
256,192,72571,12,0,74465,0:0:0:0:
96,160,75097,5,2,0:0:0:0:
448,352,76202,1,6,0:0:0:0:
96,160,76834,1,4,0:0:0:0:
224,256,77623,5,6,0:0:0:0:
224,160,78886,1,2,0:0:0:0:
224,256,79518,1,0,0:0:0:0:
416,288,80149,1,0,0:0:0:0:
352,256,81413,1,0,0:0:0:0:
160,96,82044,1,2,0:0:0:0:
256,192,82676,1,6,0:0:0:0:
384,288,83939,1,2,0:0:0:0:
128,160,84571,1,0,0:0:0:0:
128,160,85202,1,6,0:0:0:0:
352,256,85834,1,4,0:0:0:0:
352,256,86465,1,4,0:0:0:0:
160,160,87728,1,6,0:0:0:0:
